搜索
查看: 100|回复: 3
打印 上一主题 下一主题

[欧冠] 2008年5月22日 07/08赛季欧冠决赛 曼联VS切尔西 BDMV(蓝光原盘)38.9G【115】

[复制链接]

1万

主题

69

好友

3万

积分

分类版主

随遇而安

UID
60
帖子
14838
精华
0
积分
31185
香蕉币
225566
弧线球
0

分类版主 鼠

跳转到指定楼层
楼主
发表于 2014-4-9 16:44 |只看该作者 |倒序浏览
本帖最后由 风中的纸屑 于 2014-4-9 20:20 编辑
! x; j. M5 v/ Y% c: y1 ~' g5 i! ?" B: d- Y. E2 N+ o" [
. P1 L% }. R  [: i

  _5 Z. g+ H! W$ A
! B0 N' `6 X# ^7 V/ c5 t/ [视频信息:
9 R, B" H0 A4 n7 ~( m00009.m2ts2 f( Y' Q/ c3 ?7 y' {  E
Format : BDAV$ f! L; Z; Y+ f
Format/Info : Blu-ray Video
7 }7 Q5 @6 _# W/ k  p% z& A7 pFile size : 23.8 GiB
& y9 A  B3 I" c( _) N2 F" wDuration : 1h 45mn
+ C7 L9 A" Q; y3 B  o) V4 r. N1 F# yOverall bit rate mode : Variable
1 _/ c2 V" s3 @3 }% x& lOverall bit rate : 32.3 Mbps  G8 d5 O; R7 O: J5 ~
Maximum Overall bit rate : 48.0 Mbps
9 Y8 p7 Y# R* f: U" B9 i% c0 r8 KVideo #4113% G& w& E% E& i" o8 @3 \. V
ID : 4113 (0x1011)
6 m/ [; b/ \3 C' e4 p$ h) V8 RMenu ID : 1 (0x1)4 N! w" {" Z* G4 Y2 U* {
Format : AVC
! ]- M$ B7 H9 \3 ]) fFormat/Info : Advanced Video Codec0 j1 f" @: Y: l1 G% ?
Format profile : High@L4.1
+ ?( l' j1 G* R, l/ C! R" |* RFormat settings, CABAC : Yes
% Z, H5 a4 Y" b5 LFormat settings, ReFrames : 3 frames
7 Z- S) U: f4 X0 NCodec ID : 277 w( P% O6 E0 F& F
Duration : 1h 45mn
1 E7 z# h2 y: m7 B! g; S6 ]Bit rate mode : Variable
' ?1 r- D. {9 JBit rate : 30.4 Mbps: U4 m' h9 Z" g. j. f5 k+ `" G1 E
Maximum bit rate : 36.0 Mbps
& }3 _5 ]9 {" f9 _% n! ~* z4 a+ gWidth : 1 920 pixels
5 a6 u) ^, B0 zHeight : 1 080 pixels
0 q9 S  ~, P+ g) v: i' y& DDisplay aspect ratio : 16:9
; ]6 E  K3 N  G$ Q- c3 @& u4 G1 A$ [Frame rate : 29.970 fps; u5 z0 s) {7 U' c* ?: O% \3 H
Standard : NTSC) N2 v( k6 }2 a! L4 H
Color space : YUV/ R2 H" }/ N) i1 q
Chroma subsampling : 4:2:0
' a9 W: J1 t/ W8 R: J7 N1 X4 u7 dBit depth : 8 bits1 K& o, X0 x% W+ R4 Q
Scan type : Interlaced8 Q! @& c2 C" {8 {
Bits/(Pixel*Frame) : 0.489
, |0 J/ K; e# _' Z. p" q5 qStream size : 22.4 GiB (94%), H6 H* C7 I( S. A  w* t
Audio #4352
2 Z8 r, N9 q" U1 R9 w& K' ^$ CID : 4352 (0x1100)
6 j* F' ^: O0 U) S" I4 rMenu ID : 1 (0x1)2 i  |6 T' V( [6 \0 i. P' ]
Format : AC-3
( o6 n1 ~: e4 U+ M9 ~) V8 hFormat/Info : Audio Coding 3
& t% K% S0 o5 j& {" T- G3 YMode extension : CM (complete main)
. c0 @. |' ~3 `Format settings, Endianness : Big* ~' ]5 _7 t( T# E) F5 R
Codec ID : 129
1 I1 C% w) {% ~# x( VDuration : 1h 45mn
6 W0 d  Q& h" y- ?Bit rate mode : Constant
! j0 a! s) c) H6 ]Bit rate : 640 Kbps- M; }+ U. O; i* c+ {
Channel count : 6 channels1 h4 e3 p' I, q4 s$ @* D" t4 e
Channel positions : Front: L C R, Side: L R, LFE
0 C  H. ~1 \; o% y4 D+ f' OSampling rate : 48.0 KHz$ ]8 b7 m3 q: A% c* i, A
Bit depth : 16 bits- [' v2 Q- n. b" o/ F
Compression mode : Lossy7 W0 f: e2 O5 N9 h. y
Stream size : 483 MiB (2%)
% Z3 v. B3 ^; b- V& E) N. g
0 v) V" T! s! n
0 Q9 g% _4 L6 k& U1 `: h0 n% h0 u- F/ ]: q. n
视频截图:
  b8 B3 x) ~0 w. B$ i  ]8 j9 M1 O; J  U3 ^% _& g
00009.m2ts_20140409_164331.345.jpg
( a5 x7 |% H9 u9 S. ] 0.jpg 9 K( i- J, X; n5 v
1.jpg $ }( h% r' k) @" E) u8 f# e( i

6 J4 o+ o7 n+ f% Z
' D& I0 q" i4 X4 e视频下载:
7 I- e4 D, s" ]* V$ i0 P
% e* z; S/ [! {0 [: }4 e  C注意:转贴者请注明转载自【 弧线球足球之家# Q3 ~) y- x' c' K5 ^
. w6 t1 S. Q" @5 T
严禁剧透!希望大家好好遵守规则!$ M: F) z2 P- D, D! ?

  L) o  I) o: r& k+ [- j7 j1 C只限弧线球VIP 谢绝一切形式转载 转载必究3 [" d" i% N! z% k
8 V4 i1 s2 q. R7 g) g
3 }3 G2 l" |% O+ A, V1 f
说明一下:8 _! _6 x: y; o8 \* `
一些杂的文件夹打包压缩了 下载后后缀名为.7z请解压  8 q, m8 F" H2 I: u
然后所有的视频文件是属于一个STREAM 文件夹的 而STREAM文件夹是属于BDMV的一个子文件夹
  A! J" P* T! J请分类好以便蓝光刻录
% L0 _! L7 X! `" ~9 H# x2 N- ^" C
6 J- F9 e9 ^3 [1 z
游客,如果您要查看本帖隐藏内容请回复
9 f% w# P5 H- E1 ]( x
我们不录制视频,我们只是互联网的搬运工

0

主题

0

好友

125

积分

VIP

UID
5284
帖子
101
精华
0
积分
125
香蕉币
524
弧线球
3

VIP

沙发
发表于 2014-4-9 16:51 |只看该作者
感谢楼主分享精彩赛事!

7

主题

4

好友

5570

积分

VIP

西伦敦屌丝

UID
3435
帖子
5252
精华
0
积分
5570
香蕉币
1695
球队联盟
切尔西
弧线球
6

VIP 魔蝎座

板凳
发表于 2014-4-9 17:22 |只看该作者
多谢楼主分享,辛苦了!
Understand what is more important than Wisdom

12

主题

16

好友

2905

积分

VIP

UID
4456
帖子
2549
精华
0
积分
2905
香蕉币
7372
球队联盟
曼联
弧线球
5

VIP

地板
发表于 2014-4-9 18:24 |只看该作者
感谢楼主分享精彩赛事!
您需要登录后才可以回帖 登录 | 注册



免责声明|联系我们|手机版|Archiver|弧线球足球之家 ( 粤ICP备13085455号-1 )

GMT+8, 2014-4-9 21:58 , Processed in 0.325677 second(s), 24 queries .

请勿发布违反法律法规的言论,会员观点不代表论坛立场

回顶部